越南美女凯蒂教你油炸香蕉视频素材-任性资源网
越南美女凯蒂教你油炸香蕉视频素材
此内容为付费资源,请付费后查看
40
限时特惠
60
您当前未登录!建议登陆后购买,可保存购买订单
付费资源
已售 41

越南美女凯蒂教你油炸香蕉视频素材

视频素材录制了越南美女凯蒂的一天,她将教会你如何油炸出美味的甜香蕉,这种吃法在越南很受欢迎,凯蒂上树很厉害,似乎是土生土长的农村美女,性格开朗,快来和凯蒂一起学做油炸香蕉吧

视频素材详情:

General
Complete name : 任性资源网\生活\003-越南美女凯蒂教你油炸香蕉视频素材.mp4
Format : MPEG-4
Format profile : Base Media / Version 2
Codec ID : mp42 (isom/mp42)
File size : 84.3 MiB
Duration : 8 min 39 s
Overall bit rate mode : Variable
Overall bit rate : 3360 kb/s

Video
ID : 1
Format : AVC
Format/Info : Advanced Video Codec
Format profile : Main@L3.1
Format settings : CABAC / 3 Ref Frames
Format settings, CABAC : Yes
Format settings, Reference fra : 3 frames
Codec ID : avc1
Codec ID/Info : Advanced Video Coding
Duration : 8 min 39 s
Bit rate : 3224 kb/s
Width : 1 280 pixels
Height : 720 pixels
Display aspect ratio : 16:9
Frame rate mode : Constant
Frame rate : 30.000 FPS
Color space : YUV
Chroma subsampling : 4:2:0
Bit depth : 8 bits
Scan type : Progressive
Bits/(Pixel*Frame) : 0.044
Stream size : 75.8 MiB (90%)

Audio
Codec ID : mp4a-40-2
Duration : 8 min 39 s
Bit rate mode : Variable
Bit rate : 128 kb/s
Frame rate : 43.066 FPS (1024 SPF)
Compression mode : Lossy
Stream size : 7.93 MiB (9%)

© 版权声明
THE END
喜欢就支持一下吧
点赞18
分享
评论 抢沙发