韩国apple舞台活动热舞的红裙美女视频素材-任性资源网
韩国apple舞台活动热舞的红裙美女视频素材
此内容为付费资源,请付费后查看
40
限时特惠
60
您当前未登录!建议登陆后购买,可保存购买订单
付费资源
已售 33

韩国apple舞台活动热舞的红裙美女视频素材

视频素材录制了一个在舞台上上穿小红裙的微胖女孩的跳舞视频素材,五人组合中的小胖妹,看上去胖并不影响舞感,扭曲的很丝滑,微笑也很甜美,视频素材时长超2分钟,欢迎下载收藏

视频素材详情:

General
Complete name : 任性资源网\舞蹈\005-韩国apple舞台活动热舞的红裙美女视频素材.mp4
Format : MPEG-4
Format profile : Base Media
Codec ID : isom (isom/iso2/avc1/mp41)
File size : 93.7 MiB
Duration : 2 min 19 s
Overall bit rate mode : Variable
Overall bit rate : 8648 kb/s
Encoded date : UTC 2021-06-23 08:01:45
Tagged date : UTC 2021-06-23 08:01:45

Video
Codec ID/Info : Advanced Video Coding
Duration : 2 min 19 s
Bit rate : 8515 kb/s
Width : 1 920 pixels
Height : 1 080 pixels
Display aspect ratio : 16:9
Frame rate : 59.940 (60000/1001) FPS
Color space : YUV
Chroma subsampling : 4:2:0
Bit depth : 8 bits
Scan type : Progressive
Bits/(Pixel*Frame) : 0.044
Stream size : 91.4 MiB (98%)

Audio
Duration : 2 min 19 s
Bit rate mode : Variable
Bit rate : 128 kb/s
Channel(s) : 2 channels
Sampling rate : 44.1 kHz
Frame rate : 43.066 FPS (1024 SPF)
Stream size : 2.12 MiB (2%)

红裙美女视频素材

© 版权声明
THE END
喜欢就支持一下吧
点赞10
分享
评论 抢沙发