韩国思甜30周年纪念舞台跳舞的青春美女视频素材-任性资源网
韩国思甜30周年纪念舞台跳舞的青春美女视频素材
此内容为付费资源,请付费后查看
40
限时特惠
60
您当前未登录!建议登陆后购买,可保存购买订单
付费资源
已售 41

韩国思甜30周年纪念舞台跳舞的青春美女视频素材

该视频素材录制了舞台上的美女,穿着保守又不失性感,舞姿彰显有度,大方得体,是非常漂亮的职业女性风格,现场活泼可爱,身材苗条,温柔中带几分狂野

视频素材详情:

General
Complete name : 任性资源网\舞蹈\004-韩国思甜300周年纪念舞台跳舞的青春美女视频素材.mp4
Format : MPEG-4
Format profile : Base Media
Codec ID : isom (isom/iso2/avc1/mp41)
File size : 162 MiB
Duration : 3 min 51 s
Overall bit rate mode : Variable
Overall bit rate : 8880 kb/s
Encoded date : UTC 2021-08-09 01:19:40
Tagged date : UTC 2021-08-09 01:19:40

Video
Codec ID/Info : Advanced Video Coding
Duration : 3 min 50 s
Bit rate : 8 749 kb/s
Width : 1 920 pixels
Height : 1 080 pixels
Display aspect ratio : 16:9
Frame rate : 59.940 (60000/1001) FPS
Color space : YUV
Chroma subsampling : 4:2:0
Bit depth : 8 bits
Scan type : Progressive
Bits/(Pixel*Frame) : 0.046
Stream size : 158 MiB (98%)

Audio
Codec ID : mp4a-40-2
Duration : 3 min 51 s
Bit rate mode : Variable
Bit rate : 128 kb/s
Channel(s) : 2 channels
Channel layout : L R
Sampling rate : 44.1 kHz
Frame rate : 43.066 FPS (1024 SPF)
Compression mode : Lossy
Stream size : 3.53 MiB (2%)

© 版权声明
THE END
喜欢就支持一下吧
点赞62
分享
评论 抢沙发