韩国舞曲Bboomboom热舞美女视频素材-任性资源网
韩国舞曲Bboomboom热舞美女视频素材
此内容为付费资源,请付费后查看
40
限时特惠
60
您当前未登录!建议登陆后购买,可保存购买订单
付费资源
已售 24

韩国舞曲Bboomboom热舞美女视频素材

该视频素材是韩国美女舞团演唱Bboomboom歌曲跳的舞蹈,画面清晰色度饱和,跳舞节奏感很好,美女多个看的眼花缭乱,你最喜欢谁,每个人的感觉都不一样,总一款是你喜欢的美女,啊哈哈哈

视频素材详情:

General
Complete name : E:\任性资源网\舞蹈\003-韩国舞曲Bboomboom热舞美女视频素材.mp4
Format : MPEG-4
Format profile : Base Media
Codec ID : isom (isom/iso2/avc1/mp41)
File size : 150 MiB
Duration : 3 min 32 s
Overall bit rate mode : Variable
Overall bit rate : 8891 kb/s
Encoded date : UTC 2021-02-09 09:40:01
Tagged date : UTC 2021-02-09 09:40:01

Video
Format settings, Reference fra : 3 frames
Codec ID : avc1
Codec ID/Info : Advanced Video Coding
Duration : 3 min 32 s
Bit rate : 8758 kb/s
Width : 1 920 pixels
Height : 1 080 pixels
Display aspect ratio : 16:9
Frame rate : 59.940 (60000/1001) FPS
Color space : YUV
Chroma subsampling : 4:2:0
Bit depth : 8 bits
Scan type : Progressive
Stream size : 146 MiB (98%)

Audio
Format/Info : Advanced Audio Codec Low Complexity
Codec ID : mp4a-40-2
Duration : 3 min 32 s
Bit rate mode : Variable
Bit rate : 128 kb/s
Channel(s) : 2 channels
Channel layout : L R
Sampling rate : 44.1 kHz
Frame rate : 43.066 FPS (1024 SPF)
Compression mode : Lossy
Stream size : 3.25 MiB (2%)

© 版权声明
THE END
喜欢就支持一下吧
点赞8
分享
评论 抢沙发